#TITLE:Marisa Tanked My Score With An Incredible Hand;
#SUBTITLE:;
#ARTIST:IOSYS;
#TITLETRANSLIT:Marisa Tanked My Score With An Incredible Hand;
#SUBTITLETRANSLIT:;
#ARTISTTRANSLIT:IOSYS;
#CREDIT:;
#BANNER:marisa-banner.jpg;
#BACKGROUND:marisa-bg1.jpg;
#LYRICSPATH:;
#CDTITLE:CD.png;
#MUSIC:Marisa tanked my score with an Incredible Hand.mp3;
#OFFSET:-0.016;
#SAMPLESTART:91.399;
#SAMPLELENGTH:20.004;
#SELECTABLE:YES;
#DISPLAYBPM:170.000;
#BPMS:0.000=169.997,1.000=169.997,2.000=170.008,3.000=169.997,4.000=169.997,5.000=170.008,6.000=169.997,7.000=169.997,8.000=170.008,9.000=169.997,10.000=169.997,11.000=169.997,12.000=170.008,13.000=169.997,14.000=169.997,15.000=170.008,16.000=169.997,17.000=169.997,18.000=169.997,19.000=170.008,20.000=169.997,21.000=169.997,22.000=170.008,23.000=169.997,24.000=169.997,25.000=170.008,26.000=169.997,27.000=169.997,28.000=169.997,29.000=170.008,30.000=169.997,31.000=169.997,32.000=170.008,33.000=169.997,34.000=169.997,35.000=169.997,36.000=170.008,37.000=169.997,38.000=169.997,39.000=170.008,40.000=169.997,41.000=169.997,42.000=170.008,43.000=169.997,44.000=169.997,45.000=169.997,46.000=170.008,47.000=169.997,48.000=169.997,49.000=170.008,50.000=169.997,51.000=169.997,52.000=169.997,53.000=170.008,54.000=169.997,55.000=169.997,56.000=170.008,57.000=169.997,58.000=169.997,59.000=170.008,60.000=169.997,61.000=169.997,62.000=169.997,63.000=170.008,64.000=169.997,65.000=169.997,66.000=170.008,67.000=169.997,68.000=169.997,69.000=169.997,70.000=170.008,71.000=169.997,72.000=169.997,73.000=170.008,74.000=169.997,75.000=169.997,76.000=170.008,77.000=169.997,78.000=169.997,79.000=169.997,80.000=170.008,81.000=169.997,82.000=169.997,83.000=170.008,84.000=169.997,85.000=169.997,86.000=169.997,87.000=170.008,88.000=169.997,89.000=169.997,90.000=170.008,91.000=169.997,92.000=169.997,93.000=170.008,94.000=169.997,95.000=169.997,96.000=169.997,97.000=170.008,98.000=169.997,99.000=169.997,100.000=170.008,101.000=169.997,102.000=169.997,103.000=169.997,104.000=170.008,105.000=169.997,106.000=169.997,107.000=170.008,108.000=169.997,109.000=169.997,110.000=170.008,111.000=169.997,112.000=169.997,113.000=169.997,114.000=170.008,115.000=169.997,116.000=169.997,117.000=170.008,118.000=169.997,119.000=169.997,120.000=169.997,121.000=170.008,122.000=169.997,123.000=169.997,124.000=170.008,125.000=169.997,126.000=169.997,127.000=170.008,128.000=169.997,129.000=169.997,130.000=169.997,131.000=170.008,132.000=169.997,133.000=169.997,134.000=170.008,135.000=169.997,136.000=169.997,137.000=169.997,138.000=170.008,139.000=169.997,140.000=169.997,141.000=170.008,142.000=169.997,143.000=169.997,144.000=170.008,145.000=169.997,146.000=169.997,147.000=169.997,148.000=170.008,149.000=169.997,150.000=169.997,151.000=170.008,152.000=169.997,153.000=169.997,154.000=169.997,155.000=170.008,156.000=169.997,157.000=169.997,158.000=170.008,159.000=169.997,160.000=169.997,161.000=170.008,162.000=169.997,163.000=169.997,164.000=169.997,165.000=170.008,166.000=169.997,167.000=169.997,168.000=170.008,169.000=169.997,170.000=169.997,171.000=169.997,172.000=170.008,173.000=169.997,174.000=169.997,175.000=170.008,176.000=169.997,177.000=169.997,178.000=170.008,179.000=169.997,180.000=169.997,181.000=169.997,182.000=170.008,183.000=169.997,184.000=169.997,185.000=170.008,186.000=169.997,187.000=169.997,188.000=169.997,189.000=170.008,190.000=169.997,191.000=169.997,192.000=170.008,193.000=169.997,194.000=169.997,195.000=170.008,196.000=169.997,197.000=169.997,198.000=169.997,199.000=170.008,200.000=169.997,201.000=169.997,202.000=170.008,203.000=169.997,204.000=169.997,205.000=169.997,206.000=170.008,207.000=169.997,208.000=169.997,209.000=170.008,210.000=169.997,211.000=169.997,212.000=170.008,213.000=169.997,214.000=169.997,215.000=169.997,216.000=170.008,217.000=169.997,218.000=169.997,219.000=170.008,220.000=169.997,221.000=169.997,222.000=169.997,223.000=170.008,224.000=169.997,225.000=169.997,226.000=170.008,227.000=169.997,228.000=169.997,229.000=170.008,230.000=169.997,231.000=169.997,232.000=169.997,233.000=170.008,234.000=169.997,235.000=169.997,236.000=170.008,237.000=169.997,238.000=169.997,239.000=169.997,240.000=170.008,241.000=169.997,242.000=169.997,243.000=170.008,244.000=169.997,245.000=169.997,246.000=170.008,247.000=169.997,248.000=169.997,249.000=169.997,250.000=170.008,251.000=169.997,252.000=169.997,253.000=170.008,254.000=169.997,255.000=169.997,256.000=169.997,257.000=170.008,258.000=169.997,259.000=169.997,260.000=170.008,261.000=169.997,262.000=169.997,263.000=170.008,264.000=169.997,265.000=169.997,266.000=169.997,267.000=170.008,268.000=169.997,269.000=169.997,270.000=170.008,271.000=169.997,272.000=169.997,273.000=169.997,274.000=170.008,275.000=169.997,276.000=169.997,277.000=170.008,278.000=169.997,279.000=169.997,280.000=170.008,281.000=169.997,282.000=169.997,283.000=169.997,284.000=170.008,285.000=169.997,286.000=169.997,287.000=170.008,288.000=169.997,289.000=169.997,290.000=169.997,291.000=170.008,292.000=169.997,293.000=169.997,294.000=170.008,295.000=169.997,296.000=169.997,297.000=170.008,298.000=169.997,299.000=169.997,300.000=169.997,301.000=170.008,302.000=169.997,303.000=169.997,304.000=170.008,305.000=169.997,306.000=169.997,307.000=169.997,308.000=170.008,309.000=169.997,310.000=169.997,311.000=170.008,312.000=169.997,313.000=169.997,314.000=170.008,315.000=169.997,316.000=169.997,317.000=169.997,318.000=170.008,319.000=169.997,320.000=169.997,321.000=170.008,322.000=169.997,323.000=169.997,324.000=169.997,325.000=170.008,326.000=169.997,327.000=169.997,328.000=170.008,329.000=169.997,330.000=169.997,331.000=170.008,332.000=169.997,333.000=169.997,334.000=169.997,335.000=170.008,336.000=169.997,337.000=169.997,338.000=170.008,339.000=169.997,340.000=169.997,341.000=169.997,342.000=170.008,343.000=169.997,344.000=169.997,345.000=170.008,346.000=169.997,347.000=169.997,348.000=170.008,349.000=169.997,350.000=169.997,351.000=169.997,352.000=170.008,353.000=169.997,354.000=169.997,355.000=170.008,356.000=169.997,357.000=169.997,358.000=169.997,359.000=170.008,360.000=169.997,361.000=169.997,362.000=170.008,363.000=169.997,364.000=169.997,365.000=170.008,366.000=169.997,367.000=169.997,368.000=169.997,369.000=170.008,370.000=169.997,371.000=169.997,372.000=170.008,373.000=169.997,374.000=169.997,375.000=169.997,376.000=170.008,377.000=169.997,378.000=169.997,379.000=170.008,380.000=169.997,381.000=169.997,382.000=170.008,383.000=169.997,384.000=169.997,385.000=169.997,386.000=170.008,387.000=169.997,388.000=169.997,389.000=170.008,390.000=169.997,391.000=169.997,392.000=169.997,393.000=170.008,394.000=169.997,395.000=169.997,396.000=170.008,397.000=169.997,398.000=169.997,399.000=170.008,400.000=169.997,401.000=169.997,402.000=169.997,403.000=170.008,404.000=169.997,405.000=169.997,406.000=170.008,407.000=169.997,408.000=169.997,409.000=169.997,410.000=170.008,411.000=169.997,412.000=169.997,413.000=170.008,414.000=169.997,415.000=169.997,416.000=170.008,417.000=169.997,418.000=169.997,419.000=169.997,420.000=170.008,421.000=169.997,422.000=169.997,423.000=170.008,424.000=169.997,425.000=169.997,426.000=169.997,427.000=170.008,428.000=169.997,429.000=169.997,430.000=170.008,431.000=169.997,432.000=169.997,433.000=170.008,434.000=169.997,435.000=169.997,436.000=169.997,437.000=170.008,438.000=169.997,439.000=169.997,440.000=170.008,441.000=169.997,442.000=169.997,443.000=169.997,444.000=170.008,445.000=169.997,446.000=169.997,447.000=170.008,448.000=169.997,449.000=169.997,450.000=170.008,451.000=169.997,452.000=169.997,453.000=169.997,454.000=170.008,455.000=169.997,456.000=169.997,457.000=170.008,458.000=169.997,459.000=169.997,460.000=169.997,461.000=170.008,462.000=169.997,463.000=169.997,464.000=170.008,465.000=169.997,466.000=169.997,467.000=170.008,468.000=169.997,469.000=169.997,470.000=169.997,471.000=170.008,472.000=169.997,473.000=169.997,474.000=170.008,475.000=169.997,476.000=169.997,477.000=169.997,478.000=170.008,479.000=169.997,480.000=169.997,481.000=170.008,482.000=169.997,483.000=169.997,484.000=170.008,485.000=169.997,486.000=169.997,487.000=169.997,488.000=170.008,489.000=169.997,490.000=169.997,491.000=170.008,492.000=169.997,493.000=169.997,494.000=169.997,495.000=170.008,496.000=169.997,497.000=169.997,498.000=170.008,499.000=169.997,500.000=169.997,501.000=170.008,502.000=169.997,503.000=169.997,504.000=169.997,505.000=170.008,506.000=169.997,507.000=169.997,508.000=170.008,509.000=169.997,510.000=169.997,511.000=169.997,512.000=170.008,513.000=169.997,514.000=169.997,515.000=170.008,516.000=169.997,517.000=169.997,518.000=170.008,519.000=169.997,520.000=169.997,521.000=169.997,522.000=170.008,523.000=169.997,524.000=169.997,525.000=170.008,526.000=169.997,527.000=169.997,528.000=169.997,529.000=170.008,530.000=169.997,531.000=169.997,532.000=170.008,533.000=169.997,534.000=169.997,535.000=170.008,536.000=169.997,537.000=169.997,538.000=169.997,539.000=170.008,540.000=169.997,541.000=169.997,542.000=170.008,543.000=169.997,544.000=169.997,545.000=169.997,546.000=170.008,547.000=169.997,548.000=169.997,549.000=170.008,550.000=169.997,551.000=169.997,552.000=170.008,553.000=169.997,554.000=169.997,555.000=169.997,556.000=170.008,557.000=169.997,558.000=169.997,559.000=170.008,560.000=169.997,561.000=169.997,562.000=169.997,563.000=170.008,564.000=169.997,565.000=169.997,566.000=170.008,567.000=169.997,568.000=169.997,569.000=170.008,570.000=169.997,571.000=169.997,572.000=169.997,573.000=170.008,574.000=169.997,575.000=169.997,576.000=170.008,577.000=169.997,578.000=169.997,579.000=169.997,580.000=170.008,581.000=169.997,582.000=169.997,583.000=170.008,584.000=169.997,585.000=169.997,586.000=170.008,587.000=169.997,588.000=169.997,589.000=169.997,590.000=170.008,591.000=169.997,592.000=169.997,593.000=170.008,594.000=169.997,595.000=169.997,596.000=169.997,597.000=170.008,598.000=169.997,599.000=169.997,600.000=170.008,601.000=169.997,602.000=169.997,603.000=170.008,604.000=170.008;
#STOPS:;
#BGCHANGES:-0.250=Marisa2.avi=1.000=1=0=0,
598.000=marisa-bg1.jpg=1.000=1=0=0,
99999=-nosongbg-=1.000=0=0=0 // don't automatically add -songbackground-
;
// cache tags:
#FIRSTBEAT:3.000;
#LASTBEAT:601.000;
#SONGFILENAME:Songs/Music V.I.P ^_^/Marisa tanked my score with an Incredible Hand/Marisa tanked my Score with an Incredible Hand.sm;
#HASMUSIC:1;
#HASBANNER:1;
#MUSICLENGTH:213.498;
// end cache tags

//---------------dance-single - ----------------
#NOTES:
     dance-single:
     :
     Hard:
     8:
     0.960,1.000,0.014,1.000,0.133,1170.000,3.000,261.000,0.000,3.000:
0000
0000
0000
1000
,
0010
1000
0000
0010
1000
0100
0001
0000
,
0100
0001
0000
1000
0010
0100
1000
0000
,
0100
0001
1000
0010
0100
0001
0010
1000
,
1000
0000
0010
0000
1000
0100
0010
0001
1000
0000
1000
0000
1000
0000
0000
0000
,
0010
0010
1000
1000
0010
1000
0010
0000
,
0100
0001
0001
0001
0100
1000
1000
0000
,
0010
1000
1000
1000
0001
0100
1000
1000
,
0001
0000
0001
0000
1000
0010
0000
0010
1000
0000
0100
0000
0001
0000
0001
0000
,
0001
1000
1000
1000
0010
0010
0010
0001
,
0001
0000
0001
0000
0100
1000
0100
0000
2000
0000
0010
0000
3001
0000
0001
0000
,
0001
0100
0100
0100
0001
0001
0001
0010
,
0010
0000
0010
0000
0001
0010
0001
0000
0002
0000
0100
0000
1003
0000
1000
0000
,
1000
0001
0001
0001
1000
1000
1000
0100
,
0100
0000
0100
0000
0010
0100
0010
0000
0200
0000
1000
0000
0301
0000
0100
0000
,
0001
0000
0100
0000
1000
0000
1000
0000
0010
0100
0010
0000
0100
0000
0010
0000
,
1000
0100
1000
1000
1000
1000
0001
0001
,
0001
0010
0010
0010
0001
0001
0001
1000
,
1000
1000
0001
0001
0001
0010
1000
1000
,
1000
0001
0001
0001
0010
0010
0010
1000
,
1000
1000
0100
0100
0100
1000
0001
0001
,
0001
0100
0100
0100
1000
1000
1000
0001
,
0001
0001
0100
0100
0100
0001
2000
3020
,
0032
2003
3200
0320
2030
3002
0203
0302
,
2003
0000
3020
0030
0000
1000
0100
1000
0010
0100
0010
0100
1002
0000
0023
0000
,
0230
0000
2300
3000
0000
0000
0020
0000
0032
0000
0203
0300
0000
0000
2000
0000
,
3200
0000
0302
0003
0000
0000
0200
0000
0302
0000
0203
0300
0000
0000
0020
0000
,
2030
0000
3020
0030
0000
0000
2000
0000
3200
0000
0302
0003
0000
0000
0020
0000
,
0230
0000
2300
3000
0002
0000
2003
0000
3200
0000
0302
0003
2000
0000
3200
0000
,
0302
0000
2003
3000
0020
0000
0230
0000
2300
0000
3020
0030
0002
0000
0203
0000
,
0302
0000
2003
3000
0020
0000
2030
0000
3020
0000
0032
0003
0020
0000
2030
0000
,
3020
0000
0230
0300
0020
0000
2030
0000
3020
0000
0230
0300
0002
0000
0023
0000
,
2030
0000
3002
0003
0200
0000
0302
0000
2003
0000
3020
0030
0001
0000
0001
0000
,
0010
0010
1000
1000
0010
0010
0001
0001
,
1000
1000
0001
0001
1000
1000
0100
0100
,
1000
1000
0001
0001
1000
1000
0100
0100
,
0001
0000
0001
0000
1000
0000
0100
0010
0100
0000
1000
0000
0001
0000
0001
0000
,
1000
1000
0010
0010
1000
1000
0010
0010
,
0001
0001
0100
0100
0001
0001
0100
0100
,
0010
0010
1000
1000
0100
0100
0001
0001
,
1000
0000
1000
0000
0001
0010
0001
0000
0001
0000
0001
0000
1000
0000
1000
0000
,
0001
0001
0010
0010
1000
1000
0010
0010
,
0001
0001
1000
1000
0010
0010
1000
1000
,
0010
0010
1000
1000
0010
0010
0100
0100
,
0001
0001
0100
0100
1000
1000
0010
0010
,
1000
1000
0100
0100
1000
1000
0001
0001
,
1000
1000
0001
0001
0100
0100
1000
0100
,
0001
0010
1000
0001
1000
0001
1000
0001
,
1000
0000
0001
0000
1000
0000
1000
0000
1000
0000
0001
0100
0002
0000
1000
0000
,
0010
0000
1003
0000
0010
0000
1000
0000
0010
0000
1000
0010
0200
0000
0001
0000
,
0001
1300
0002
0010
1000
0010
2003
0001
,
0100
0001
3010
0001
0100
1000
0001
0010
,
1000
0010
0001
0010
1000
1000
0020
1000
,
0031
0100
2000
0100
3020
0100
0032
0100
,
0010
2003
0001
0010
3020
0001
2030
0100
,
0010
0000
3002
0000
0100
0000
0000
0023
0000
0000
0001
0000
2030
0000
0001
0000
,
3001
0000
0001
0000
0100
0000
0000
0001
0000
0000
1000
0000
0200
0000
0001
0000
,
0001
0000
1300
0000
0010
0000
1000
0000
0010
0000
0001
1000
0002
0000
1000
0000
,
1000
0000
0000
2003
0000
0000
0001
0000
0100
0000
0001
0000
3020
0000
1000
0000
,
0100
1000
0130
0001
1000
0001
0010
1000
,
2000
0000
0001
0000
3001
0000
0000
0001
0000
0000
0002
0000
1000
0000
0010
0000
,
0100
0203
0010
0001
0320
0100
2030
0001
,
0010
3002
1000
0100
0203
0001
0320
0100
,
1000
2030
0010
0001
0100
0010
0002
3203
,
2300
3002
0023
2030
3002
0203
1300
0010
,
0001
0000
0100
0000
1000
0000
0000
0100
0000
0000
1000
0000
0020
0030
2000
0000
,
3020
0000
2030
0000
3002
0000
0023
0000
2030
3000
0200
0300
0001
0000
0001
0000
,
1000
0000
0100
0000
0010
0000
0000
0001
0000
0000
1000
0000
0002
0000
0203
0300
,
2000
3002
0203
0302
2003
3020
1030
0010
,
1000
0000
0010
0000
0100
0000
0000
0001
0000
0000
1000
0000
0010
0000
0001
0000
,
1000
0001
0001
0010
0100
0010
0001
0100
,
1000
0000
0001
0000
1000
0000
0000
0001
0000
0000
1000
0000
0002
0000
0203
0000
,
0302
2003
3200
0302
0023
0230
0301
0010
,
1000
0000
0010
0000
0001
0000
0000
1000
0000
0000
0001
0000
2000
3000
0200
0000
,
0302
0000
2003
0000
3020
0000
2030
0000
3020
0030
0200
0300
1000
0000
0001
0000
,
0100
0000
1000
0000
0001
0000
0000
1000
0000
0000
0001
0000
2000
0000
3020
0030
,
0200
0302
0023
2030
3200
0302
1003
0100
,
0001
0010
0001
0010
1000
1000
0010
1000
,
0100
0100
0100
0001
1000
0100
0002
0100
,
1000
0100
2003
0001
3100
0001
0020
1000
,
0031
0000
0010
0000
0100
0000
0000
0001
0000
0100
0000
0000
1000
0000
0020
0000
,
2030
0000
3002
0000
0023
0000
2030
0000
3200
0000
0320
0000
2030
3000
0001
0010
,
0100
0000
1000
0100
0010
0000
0001
0010
0100
0000
1000
0000
1000
0000
1000
0000
,
0100
0100
0010
0010
0100
0100
0010
0010
,
1000
1000
0100
0100
1000
1000
0010
0010
,
0100
0100
0001
0001
1000
1000
0100
0100
,
0001
0000
0001
0000
1000
0100
0010
0001
0010
0000
0010
0000
0001
0000
0001
0000
,
1000
1000
0010
0010
1000
1000
1000
1000
,
0001
0000
0001
0000
0001
0000
0001
0000
1000
0000
1000
0000
0001
0010
0100
1000
,
0100
0000
0100
0000
0010
0000
0010
0000
0001
0000
0001
0000
1000
0100
0010
0001
,
0010
0000
0001
0010
0100
0000
1000
0100
0010
0000
0010
0000
0001
0000
0001
0000
,
1000
1000
0010
0010
0001
0001
1000
1000
,
0001
0001
0001
0001
0001
0001
1000
1000
,
0100
0100
0100
0100
0001
0001
1000
1000
,
0001
0000
0001
0000
1000
0100
0010
0001
0010
0000
0010
0000
0100
0000
0100
0000
,
1000
1000
0001
0001
1000
1000
0001
0001
,
1000
1000
0001
0001
1000
1000
0001
0001
,
0100
0100
1000
1000
0010
0010
1000
0001
,
1000
0000
0100
0000
0001
0000
0010
0100
1000
0000
0100
0010
0002
0000
1000
0000
,
0010
0000
1000
0000
0103
0000
1000
0000
0100
0000
0010
0100
2000
0000
0010
0000
,
0100
0010
3002
0100
1000
0010
2003
0001
,
0100
0001
3100
0010
1000
0001
0010
0100
,
1000
0010
1000
1000
0001
0001
0002
1000
,
0103
0001
2000
0001
3020
1000
0032
0100
,
1000
0003
2000
0000
0010
0000
3010
0000
0001
0000
0001
0000
0002
0000
1000
0000
,
0100
2003
0010
0001
3020
0100
2030
0100
,
0001
0000
3100
0000
0001
0000
0000
0100
0000
0000
0001
0000
0002
0000
1000
0000
,
0010
0000
1003
0000
0010
0000
1000
0000
0010
0000
1000
0010
2000
0000
0001
0000
,
0001
3100
0002
0100
0100
0103
2000
0001
,
0100
0001
3010
0001
1000
0001
1000
0010
,
2000
0000
0100
0000
3001
0000
0000
1000
0000
0000
0002
0000
1000
0000
0010
0000
,
0100
0003
2000
0000
0010
0000
0001
0000
3200
0000
0001
0000
0320
0000
1000
0000
,
1000
2030
0100
0010
3002
1000
2003
0001
,
0010
3002
0100
0010
1000
0010
1003
0000
,
0000
0020
2030
3002
0203
0320
1030
0010
,
1000
0000
0010
0000
0001
0000
0000
1000
0000
0000
0001
0000
2000
3000
0002
0000
,
0203
0000
0302
0000
2003
0000
3200
0000
0302
0003
1000
0000
0001
0000
0100
0000
,
1000
0000
0010
0000
0001
0000
0000
0100
0000
0000
1000
0000
0200
0000
0302
0003
,
0200
0302
2003
3020
2030
3200
1300
0100
,
0001
0100
1000
0001
0100
1000
0100
1000
,
0001
0001
0100
0001
1000
0100
0001
0001
,
1000
0000
1000
0000
0010
0000
0000
0001
0000
0000
1000
0000
0002
0000
0203
0000
,
0320
0032
0203
2300
3200
0320
1030
0001
,
0001
0000
0100
0000
1000
0000
0000
0001
0000
0000
1000
0000
0002
0003
2000
0000
,
3200
0000
0302
0000
0023
0000
0032
0000
2003
3000
0020
0030
1000
0000
0001
0000
,
0001
0000
0100
0000
1000
0000
0000
0001
0000
0000
1000
0000
0002
0000
0023
0030
,
2000
3002
0203
0302
0023
2030
3001
0001
,
1000
0100
1000
0001
1000
1000
0001
0001
,
0100
1000
0001
0010
1000
0010
0002
1000
,
0010
0100
2003
0001
3010
1000
0002
0100
,
0103
0000
1000
0000
0001
0000
0000
1000
0000
0000
1000
0000
0200
0000
0320
0000
,
2030
0000
3020
0000
2030
0000
3020
0000
2030
0000
3002
0000
0203
0300
0001
0010
,
0100
0000
1000
0100
0010
0000
0001
0010
0100
0000
0010
0000
1000
0000
1000
0000
,
0001
0001
1000
1000
0001
0001
1000
1000
,
0001
0001
1000
1000
0001
0001
0100
0100
,
0010
0010
0100
0100
0010
0010
0100
0100
,
0010
0010
0100
0100
0010
0010
1000
1000
,
0010
0010
1000
1000
0010
0010
0100
0100
,
0001
0001
0100
0100
0001
0001
1000
1000
,
0100
0100
0010
0010
0001
0001
0100
0100
,
0010
0010
1000
1000
0001
0001
1000
1000
,
0001
0001
1000
1000
0001
0001
1000
1000
,
0001
0001
0100
0100
0001
0001
1000
0001
,
1000
0010
0100
1000
0001
0100
0001
1000
,
0010
1000
0001
1000
0010
1000
2000
3200
,
0320
0032
0023
0230
2300
3200
0320
0032
,
0023
0230
2300
3200
0320
0032
2203
0000
,
0000
0000
0000
0000
,
0000
0000
0000
3322
,
0000
0000
0000
0000
,
0000
0033
0000
0000
;

//---------------dance-single - ----------------
#NOTES:
     dance-single:
     :
     Challenge:
     10:
     1.000,1.000,1.000,0.379,0.637,1424.000,628.000,81.000,0.000,40.000:
0000
0000
0000
0000
0000
0000
0000
0000
0000
0000
0000
0000
1001
0100
0000
0001
,
0010
0000
1000
0100
0000
0001
0010
0000
1000
0000
0100
0000
0011
0100
0000
1000
,
0100
0000
0001
0010
0000
0001
1000
0000
0010
0000
0100
0000
1001
0010
0000
1000
,
0100
0000
0001
0010
1100
0001
0010
0000
0100
0000
0001
0000
0110
0001
1000
0010
,
1100
0001
0010
0100
1001
0110
1001
0110
1001
0000
1001
0000
1001
0000
0000
0100
,
0010
0000
0010
0001
1100
0000
1100
0000
0110
0000
1001
0000
0110
0001
0000
1000
,
0100
0000
0001
0100
0011
0000
0011
0000
0101
0000
1001
0000
1100
0001
0000
0100
,
0010
0000
1000
0001
1100
0000
1100
0000
0011
0000
1100
0000
1000
0000
1000
0000
,
0001
0000
0001
0000
1100
0011
0000
0011
1100
0000
0100
0000
0011
0000
0011
0000
,
0011
1100
1100
1100
0110
0110
0110
1001
,
1001
0000
1001
0000
0100
1000
0100
0000
2100
0000
0010
0000
3011
0000
0011
0000
,
0011
0110
0110
0110
1001
1001
1001
1010
,
1010
0000
1010
0000
0001
0010
0001
0000
0012
0000
0100
0000
1103
0000
1100
0000
,
1100
0101
0101
0101
1010
1010
1010
1100
,
1100
0000
1100
0000
0010
0100
0010
0000
0210
0000
1000
0000
1301
0000
0100
0000
,
0011
0000
0100
0000
1100
0000
1100
0000
0010
0100
0010
0000
0101
0000
0010
0000
,
1001
0100
1100
1100
1100
1100
1001
1001
,
1001
1010
1010
1010
0011
0011
0011
1100
,
1100
1100
0011
0011
0011
0010
1100
1100
,
1100
0101
0101
0101
0011
0011
0011
1010
,
1010
1010
1100
1100
1100
1000
0011
0011
,
0011
0110
0110
0110
1010
1010
1010
1001
,
1001
0000
1001
0000
1100
0000
1100
0000
1100
0000
0001
0000
1000
0100
0010
0001
,
0010
0100
1000
0100
0010
0001
0010
0100
1000
0100
0010
0001
0010
0100
0010
0001
,
0010
0100
0010
0001
0000
1000
0100
0010
1001
0100
0010
0001
1100
0010
0001
0010
,
0100
1000
0100
0010
0000
0001
0010
0001
0010
0100
1000
0100
0000
0010
0100
0010
,
0100
0010
0001
0010
0000
1000
0100
0010
0001
0010
0100
1000
0000
0001
0010
0100
,
1000
0100
0010
0001
0000
1000
0100
1000
0100
0010
0001
0010
0000
1000
0100
0010
,
0100
0010
0100
1000
0100
0010
0100
1000
0100
0010
0001
0010
1000
0010
0100
0010
,
0001
0010
1000
0010
0100
1000
0100
0010
1000
0100
0001
0100
0001
1000
0100
0010
,
0001
0010
1000
0001
0010
0100
1000
0100
0001
0100
0001
0100
0001
0100
1000
0100
,
0010
0001
0100
0001
0010
0100
1000
0100
0010
0001
0100
0001
0010
0001
0010
0100
,
1000
0100
0001
1000
0100
0010
0001
0010
1000
0001
0010
0000
1001
0000
1001
0000
,
0110
0110
1001
1001
1010
1010
0011
0011
,
1100
1100
0011
0011
1001
1001
0110
0110
,
1010
1010
0101
0101
1010
1010
0110
0110
,
0011
0000
0011
0000
1100
0000
0100
0011
1100
0000
1100
0000
0011
0000
0011
0000
,
1010
1010
0110
0110
1001
1001
0110
0110
,
0011
0011
1100
1100
0101
0101
0110
0110
,
1010
1010
1001
1001
1100
1100
0011
0011
,
1010
0000
1010
0000
0011
1100
0011
0000
0011
0000
0011
0000
1100
0000
1100
0000
,
0101
0101
0110
0110
1001
1001
1010
1010
,
0011
0011
1100
1100
0110
0110
1001
1001
,
0110
0110
1001
1001
1010
1010
1100
1100
,
0011
0011
0110
0110
1010
1010
0011
0011
,
1010
1010
0101
0101
1100
1100
0011
0011
,
1100
1100
1001
1001
0110
0110
1001
0100
,
1001
0001
1100
0101
1100
0011
1010
1001
,
1100
0000
0011
0000
1001
0000
1010
0000
1100
0000
0011
1100
0012
0000
1000
0000
,
0010
0000
1003
0000
0010
0000
1000
0000
0010
0000
1100
0011
1200
0000
0001
0000
,
0001
1300
0012
0010
1000
0010
2103
0001
,
0100
0001
3010
0001
0100
1000
0001
0010
,
1000
0010
0001
0010
1001
1001
0120
1000
,
0031
0100
2100
0100
3120
0100
1032
0100
,
0010
2013
0001
0010
3021
0001
2130
0100
,
0010
0000
3012
0000
0100
0000
1000
0123
1000
0000
0001
0000
2031
0010
0001
0010
,
3100
1000
0100
1000
0110
0000
0100
0011
0100
0000
1100
0000
1200
0000
0001
0000
,
0001
0000
1300
0000
0010
0000
1000
0000
0010
0000
0011
1100
0012
0000
1000
0000
,
1000
0000
0010
2103
0001
0000
0001
0000
0100
0000
0001
0000
3021
0000
1000
0000
,
0100
1000
0130
0001
1000
0001
0010
1100
,
2100
0000
0001
0000
3011
0000
0100
0011
1000
0000
0012
0000
1000
0000
0010
0000
,
0100
1203
0010
0001
0321
0100
2031
0001
,
0010
3012
1000
0100
1203
0001
0321
0100
,
1000
0000
2031
0000
0010
0000
0001
0000
0100
0000
0010
0000
0001
0010
3100
1000
,
0100
0010
0001
0010
0100
1000
0100
0010
0100
1000
0100
0010
1001
0000
0010
0000
,
0011
0000
0100
0000
1100
0000
0001
0110
0001
0000
1001
0000
0010
0000
1000
0100
,
0020
0030
0000
0100
0000
0000
1000
0000
0000
0100
0000
0000
0020
0030
0000
0001
0000
0000
0020
0030
0000
0100
0000
0000
1000
0000
0000
0000
0000
0000
0100
0000
0000
0000
0000
0000
0011
0000
0000
0000
0000
0000
0001
0000
0000
0000
0000
0000
,
1010
0000
0100
0000
0011
0000
0010
0101
1000
0000
1010
0000
0001
0010
0100
0000
,
2000
3000
0000
0100
0000
0000
0010
0000
0000
0100
0000
0000
0020
0030
0000
0001
0000
0000
0020
0030
0000
0100
0000
0000
0010
0000
0000
0001
0000
0000
0010
0000
0000
0001
0000
0000
1100
0000
0000
0000
0000
0000
0010
0000
0000
0000
0000
0000
,
1001
0000
0010
0000
0101
0000
1000
0011
0100
0000
1010
0000
0010
0000
0101
0000
,
1000
0101
0011
0010
0101
0010
0101
0100
,
1010
0000
0001
0000
1100
0000
0100
0011
1000
0000
1100
0000
0001
0010
0100
0010
,
0002
0003
0000
0010
0000
0000
0100
0000
0000
1000
0000
0000
0200
0300
0000
0010
0000
0000
0002
0003
0000
0010
0000
0000
0100
0000
0000
1000
0000
0000
0100
0000
0000
1000
0000
0000
0011
0000
0000
0000
0000
0000
0010
0000
0000
0000
0000
0000
,
1001
0000
0010
0000
0011
0000
0001
1100
0010
0000
0101
0000
1000
0000
0010
0001
,
0020
0030
0000
0100
0000
0000
0010
0000
0000
0001
0000
0000
0020
0030
0000
0100
0000
0000
2000
3000
0000
0100
0000
0000
0010
0000
0000
0000
0000
0000
0100
0000
0000
0000
0000
0000
1001
0000
0000
0000
0000
0000
0001
0000
0000
0000
0000
0000
,
0110
0000
1000
0000
0101
0000
0010
1001
0100
0000
0011
0000
1000
0100
0010
0000
,
0002
0003
0000
0010
0000
0000
0001
0000
0000
0010
0000
0000
0200
0300
0000
1000
0000
0000
0200
0300
0000
1000
0000
0000
0100
0000
0000
0010
0000
0000
0001
0000
0000
0010
0000
0000
1100
0000
0000
0000
0000
0000
0100
0000
0000
0000
0000
0000
,
0101
0010
0101
0011
1000
1100
0010
1001
,
0100
0101
0110
0001
1010
0100
1002
0100
,
1000
0100
2103
0001
3100
0001
0021
1000
,
0031
0000
0011
0000
0101
0000
0010
0101
1000
0110
0001
0000
1100
0001
0010
0100
,
1000
0100
0010
0001
0010
0100
1000
0100
0010
0001
0010
0100
1000
0000
0010
0010
,
0010
0000
0100
0100
0100
0000
0001
0001
0001
0000
1000
0000
1001
0000
1001
0000
,
0110
0110
0011
0011
1100
1100
0110
0110
,
1001
1001
0110
0110
1001
1001
1010
1010
,
0110
0110
0011
0011
1010
1010
1100
1100
,
0011
0000
0011
0000
1100
0011
1100
0011
1100
0000
1100
0000
0011
0000
0011
0000
,
1010
1010
0110
0110
1100
1100
1100
1100
,
0011
0000
0011
0000
0011
0000
0011
0000
1100
0000
1100
0000
0011
1100
0011
1100
,
0011
0000
0011
0000
1010
0000
1010
0000
0101
0000
0101
0000
1100
0011
1100
0011
,
1100
0000
1100
0011
1100
0000
1100
0011
1100
0000
1100
0000
0011
0000
0011
0000
,
1010
1010
0110
0110
1001
1001
1010
1010
,
0011
0011
0011
0011
0011
0011
1010
1010
,
1100
1100
1100
1100
0101
0101
1010
1010
,
0011
0000
0011
0000
1100
0011
1100
0011
1100
0000
1100
0000
0101
0000
0101
0000
,
1010
1010
1001
1001
1100
1100
0011
0011
,
1010
1010
1001
1001
1100
1100
0011
0011
,
0110
0110
1001
1001
0110
0110
1001
0011
,
1010
0000
1100
0000
1001
0000
0011
1100
0011
0000
0011
1100
0012
0000
1000
0000
,
0010
0000
1000
0000
0103
0000
1000
0000
0010
0000
1100
0011
2100
0000
0010
0000
,
0100
0010
3102
0100
1000
0010
2103
0001
,
0100
0001
3100
0010
1000
0001
0010
0100
,
1000
0010
1000
1000
0011
0011
0012
1000
,
0103
0001
2010
0001
3021
1000
0132
0100
,
1000
0003
2100
0000
0010
0000
3010
0000
0101
0000
0101
0000
0102
0000
1000
0000
,
0100
0000
2103
0000
0010
0000
0001
0000
3021
0000
0100
0000
2031
0010
0100
0010
,
0001
0010
3100
1000
0101
0000
0001
1100
0010
0000
0011
0000
0012
0000
1000
0000
,
0010
0000
1003
0000
0010
0000
1000
0000
0010
0000
1100
0011
2100
0000
0001
0000
,
0001
3100
0012
0100
0100
0103
2010
0001
,
0100
0001
3010
0001
1000
0001
1000
0110
,
2010
0000
0100
0000
3011
0000
0001
1010
0100
0000
0012
0000
1000
0000
0010
0000
,
0100
0003
2100
0000
0010
0000
0001
0000
3201
0000
0001
0000
1320
0000
1000
0000
,
1000
2031
0100
0010
3012
1000
2013
0001
,
0010
3012
0100
0010
1000
0010
1103
0000
,
0000
0000
1000
0100
1000
0100
0010
0100
0010
0001
0010
0001
1100
0000
0010
0000
,
1001
0000
0010
0000
0011
0000
0001
1010
0100
0000
0011
0000
1000
0000
0001
0010
,
0100
0010
0001
0010
0100
1000
0100
0010
0001
0000
1010
0000
0011
0000
0100
0000
,
1100
0000
0010
0000
0011
0000
0001
0110
0001
0000
1100
0000
0100
0010
0001
0000
,
0100
0010
0001
0010
1000
0100
0010
0001
0100
0010
0100
0010
1001
0000
0100
0000
,
0011
0100
1010
0011
0100
1100
0100
1001
,
0001
0011
0101
0001
1010
0100
0011
0001
,
1010
0000
1000
0000
0110
0000
0100
0011
0100
0000
1100
0000
0001
0010
0100
1000
,
0100
0000
0001
0010
0100
1000
0100
0001
0010
0001
0010
0100
1001
0000
0001
0000
,
0011
0000
0100
0000
1010
0000
1000
0011
0100
0000
1100
0000
0001
0000
1000
0100
,
0010
0001
0010
0001
0010
0100
0010
0100
1000
0000
0010
0000
1001
0000
0001
0000
,
0011
0000
0100
0000
1010
0000
0100
0011
1000
0000
1001
0000
0010
0100
0010
0000
,
1000
0100
0010
0001
0010
0100
0010
0001
0010
0100
1000
0100
0011
0000
0001
0000
,
1010
0100
1010
0011
1000
1100
0001
0011
,
0100
1010
0011
0010
1100
0010
0012
1000
,
0010
0100
2103
0001
3010
1000
0102
0100
,
0103
0000
1100
0000
0101
0000
0001
1100
0010
0000
1100
0000
1100
0001
0010
0100
,
1000
0100
0010
0001
1000
0001
0010
0100
1000
0010
0001
0010
0100
0000
0010
0010
,
0010
0000
1000
1000
1000
0000
0100
0100
0100
0000
0010
0000
1001
0000
1000
0000
,
0001
0001
1000
1000
0001
0001
1000
1000
,
0001
0001
1000
1000
0001
0001
0110
0100
,
0010
0010
0100
0100
0010
0010
0100
0100
,
0010
0010
0100
0100
0010
0010
1010
1000
,
0010
0010
1000
1000
0010
0010
0101
0100
,
0001
0001
0100
0100
0001
0001
1100
1000
,
0100
0100
0011
0010
0001
0001
0110
0100
,
0010
0010
1001
1000
0001
0001
1100
1000
,
0011
0001
1010
1000
0101
0001
1010
1000
,
0011
0001
0110
0100
0011
0001
1100
0011
,
1001
0110
0101
1010
1001
0110
0011
1010
,
0110
0000
1001
0000
0011
0000
1010
0000
0110
0000
1001
0000
1100
0001
1100
0001
,
1100
0001
1100
0001
1100
0001
1100
0001
1100
0001
1100
0001
1100
0001
1100
0001
,
1100
0001
1100
0001
1100
0001
1100
0001
1100
0001
1100
0001
2200
0000
0000
0000
,
0000
0000
0000
0000
,
0000
0000
0000
3322
,
0000
0000
0000
0000
,
0000
0033
0000
0000
,
0000
0000
0000
0000
;

//---------------dance-single - ----------------
#NOTES:
     dance-single:
     :
     Edit:
     12:
     1.000,1.000,1.000,0.309,1.000,1711.000,610.000,66.000,0.000,40.000:
0000
0000
0000
0000
0000
0000
0000
0000
0000
0000
0000
0000
1001
0100
0000
0001
,
0010
0000
1000
0100
0000
0001
0010
0000
1000
0000
0100
0000
0011
0100
0000
1000
,
0100
0000
0001
0010
0000
0001
1000
0000
0010
0000
0100
0000
1001
0010
0000
1000
,
0100
0000
0001
0010
1100
0001
0010
0000
0100
0000
0001
0000
0110
0001
1000
0010
,
1100
0001
0010
0100
1001
0110
1001
0110
1001
0000
1001
0000
1001
0000
0000
0100
,
0010
0000
0010
0001
1100
0010
1100
0000
0110
0000
1001
0000
0110
0001
0000
1000
,
0100
0000
0001
0100
0011
1000
0011
0000
0101
0000
1001
0000
1100
0001
0000
0100
,
0010
0000
1000
0001
1100
0010
1100
0000
0011
0000
1100
0000
1000
0000
1000
0000
,
0001
0000
0001
0000
1100
0011
0000
0011
1100
0000
0100
0000
0011
1000
0001
0100
,
0001
0010
1100
0001
1000
0010
1000
0001
0110
1000
0010
0001
0010
0100
1001
0010
,
0001
1000
0001
0000
1100
0011
1100
0000
2100
0001
0010
0100
3011
0100
0001
0010
,
0001
1000
0110
0001
0100
0010
0100
0010
1001
0100
0001
0010
0001
0100
1010
0001
,
0010
0100
0010
0000
0011
1100
0011
0000
0012
1000
0100
0010
1103
0001
1000
0100
,
1000
0010
0101
1000
0001
0010
0001
0100
1010
0001
0010
0100
0010
0001
1100
0010
,
1000
0100
1000
0000
0110
1001
0110
0000
0210
0001
1000
0010
1301
0010
0100
1000
,
0011
1000
0100
0010
1100
0001
1100
0001
1100
0011
1100
0010
0101
1000
0010
0100
,
1001
0010
0100
0001
1100
0010
1100
0010
1100
0010
1100
0010
1001
0100
0001
0010
,
0001
0100
1010
0001
1000
0010
1000
0100
0011
1000
0010
0100
0010
0001
1100
0010
,
0100
1000
0100
1000
0011
0100
0011
0100
0011
0100
0010
0001
1100
0010
1000
0100
,
1000
0010
0101
1000
0100
0010
0100
1000
0011
0100
0001
0010
0001
0100
1010
0001
,
0010
0100
0010
0001
1100
0010
1100
0010
1100
0010
1000
0100
0011
1000
0001
0100
,
0001
1000
0110
0001
0100
0010
0100
0001
1010
0100
0010
1000
0010
0100
1001
0010
,
0001
0100
0001
0010
1100
0010
1100
0010
1100
0010
0001
0010
1000
0100
0010
0001
,
0010
0100
1000
0100
0010
0001
0010
0100
1000
0100
0010
0001
0010
0100
0010
0001
,
0010
0100
0010
0001
0010
1000
0100
1000
0101
1000
0100
0010
1100
0010
0001
0010
,
0100
1000
0100
0010
0000
0001
0010
0001
0010
0100
1000
0100
0000
0010
0100
0010
,
0100
0010
0001
0010
0000
1000
0100
0010
0001
0010
0100
1000
0000
0001
0010
0100
,
1000
0100
0010
0001
0000
1000
0100
1000
0100
0010
0001
0010
0000
1000
0100
0010
,
0100
0010
0100
1000
0101
0010
0100
1000
0100
0010
0001
0010
1100
0010
0100
0010
,
0001
0010
1100
0010
0100
1000
0100
0010
1000
0100
0011
0100
0011
1000
0100
0010
,
0001
0010
1100
0001
0010
0100
1000
0100
0011
0100
0011
0100
0011
0100
1000
0100
,
0010
0001
0110
0001
0010
0100
1000
0100
0010
0001
0110
0001
0110
0001
0010
0100
,
1000
0100
0011
1000
0100
0010
0001
0010
1100
0001
0010
0000
1001
0000
1001
0000
,
0110
0110
1001
1001
1010
1010
0011
0011
,
1100
1100
0011
0011
1001
1001
0110
0110
,
1010
1010
0101
0101
1010
1010
0110
0110
,
0011
0000
0011
0000
1100
0000
1100
0011
1100
0000
1100
0000
0101
0000
0101
0000
,
1010
1010
0110
0110
1001
1001
0110
0110
,
0011
0011
1100
1100
0101
0101
0110
0110
,
1010
0000
1010
0000
1001
0000
1001
0000
1010
0000
1010
0100
0011
1000
0011
0100
,
1010
0001
1010
0100
0011
1100
0011
1000
0011
0100
0011
0100
1010
0000
1010
0000
,
0101
0101
0110
0110
1001
1001
1010
1010
,
0011
0011
1100
1100
0110
0110
1001
1001
,
0110
0110
1001
1001
1010
1010
1100
1100
,
0011
0011
0110
0110
1010
1010
0011
0011
,
1010
1010
0101
0101
1100
1100
0011
0011
,
1100
1100
1001
1001
0110
0110
1001
0100
,
1001
0000
0001
0000
1100
0000
1001
0000
0011
0000
1010
0000
1100
0010
1100
0001
,
1100
0010
1100
0001
1100
0010
1100
0001
1100
0000
0011
1100
0012
0000
1000
0000
,
0010
0100
1003
0000
0010
0000
1000
0100
0010
0000
1100
0011
1200
0000
0001
0000
,
0001
0010
1300
0000
0012
0000
0010
0100
1000
0000
0010
0000
2103
0000
0001
0000
,
0100
0010
0001
0000
3010
0000
0001
0010
0100
0000
1000
0000
0001
0000
0010
0000
,
1000
0100
0010
0000
0001
0000
0010
0100
1001
0000
1001
0000
0120
0000
1000
0000
,
0031
0010
0100
0000
2100
0000
0100
0001
3120
0000
0100
0000
1032
0000
0100
0000
,
0010
0100
2013
0000
0001
0000
0010
0100
3021
0000
0001
0000
2130
0000
0100
0000
,
0010
0100
3012
0000
0100
0000
1000
0123
1000
0000
0001
0000
2031
0010
0001
0010
,
3100
1000
0100
1000
0110
1000
0100
0011
0100
0010
1100
0010
1200
0000
0001
0000
,
0001
0010
1300
0000
0010
0000
1000
0100
0010
0000
0011
1100
0012
0000
1000
0000
,
1000
0100
0010
2103
0001
0000
0001
0010
0100
0000
0001
0000
3021
0000
1000
0000
,
0100
0001
1000
0000
0130
0000
0001
0010
1000
0000
0001
0000
0010
0000
1100
0000
,
2100
0010
0001
0000
3011
0000
0100
0011
1000
0000
0012
0000
1000
0000
0010
0000
,
0100
0010
1203
0000
0010
0000
0001
1000
0321
0000
0100
0000
2031
0000
0001
0000
,
0010
0100
3012
0000
1000
0000
0100
0010
1203
0000
0001
0000
0321
0000
0100
0000
,
1000
0100
2031
0000
0010
0000
0001
0010
0100
0000
0010
0000
0001
0010
3100
1000
,
0100
0010
0001
0010
0100
1000
0100
0010
0100
1000
0100
0010
1001
0000
0010
0000
,
0011
0000
0100
0001
1100
0000
0001
0110
0001
0000
1001
0000
0010
0000
0010
0100
,
1001
0100
0010
0100
0011
1000
0011
0100
1000
0000
0100
0000
0011
0000
0100
0000
,
1100
0000
0010
1000
0011
0000
0010
0101
1000
0000
1010
0000
0001
0010
0100
0000
,
1001
0100
0010
0100
1010
0001
1010
0100
0010
0001
0010
0001
1100
0000
0001
0000
,
0011
0000
1000
0010
0101
0000
1000
0011
0100
0000
1010
0000
0010
0000
0101
0000
,
1000
0000
0101
1000
0011
0000
0010
1000
0101
0000
0010
0000
0101
0000
0100
0000
,
1010
0000
0001
0010
1100
0000
0100
0011
1000
0000
1100
0000
0001
0010
0100
0010
,
1001
0010
0100
1000
0011
1000
0011
0100
1000
0010
0100
1000
0011
0000
1000
0000
,
1100
0000
0010
0100
0011
0000
0001
1100
0010
0000
0101
0000
1000
0000
0010
0100
,
0011
1000
0010
1000
0011
0100
0011
1000
0010
0000
0100
0000
1001
0000
0001
0000
,
0110
0000
1000
0010
0101
0000
0010
1001
0100
0000
0011
0000
1000
0100
0010
0000
,
1001
0010
0001
1000
0110
0001
0110
1000
0100
0010
0001
0010
1100
0000
0100
0000
,
0011
0000
0010
1000
0101
0000
0011
0100
1000
0000
1100
0000
0010
0000
1001
0000
,
0100
0000
0101
1000
0110
0000
0001
0100
1010
0000
0100
0000
1002
0000
0100
0000
,
1000
0000
0100
0010
2103
0000
0001
0010
3100
0000
0001
0000
0021
0100
1000
0100
,
0031
0100
0011
1000
0101
1000
0010
0101
1000
0110
0001
0010
1100
0001
0010
0100
,
1000
0100
0010
0001
0010
0100
1000
0100
0010
0001
0010
0100
1000
0000
0010
0010
,
0010
0000
0100
0100
0100
0000
0001
0001
0001
0000
1000
0000
1001
0100
0001
1000
,
0110
0000
0100
1000
0011
0100
0001
0000
1100
0000
1000
0000
0110
0001
0010
0100
,
1001
0000
0001
1000
0110
0001
0100
0000
1001
0000
0001
0000
1010
0001
1000
0001
,
0110
0000
0100
1000
0011
0100
0001
0000
1010
0000
0010
0000
1100
0001
1000
0100
,
0011
0100
0001
0010
1100
0011
1100
0011
1100
0001
1100
0000
0011
1000
0001
0100
,
1010
0000
1000
0001
0110
1000
0010
0000
1100
0000
1100
0000
1100
0010
1000
0100
,
0011
0000
0011
0100
0011
1000
0001
0000
1100
0000
1000
0000
0011
1100
0011
1100
,
0011
0000
0011
0100
1010
0001
1000
0000
0101
0000
0001
0000
1100
0011
1100
0011
,
1100
0010
1100
0011
1100
0001
1100
0011
1100
0010
1100
0000
0011
0100
0001
0100
,
1010
0000
1000
0001
0110
1000
0100
0000
1001
0000
0001
0000
1010
0001
1000
0100
,
0011
0000
0011
0100
0011
1000
0011
0000
0011
0000
0011
0000
1010
0001
0010
0001
,
1100
0000
1100
0010
1100
0001
1100
0000
0101
0000
0001
0000
1010
0001
1000
0100
,
0011
1000
0001
0010
1100
0011
1100
0011
1100
0010
1100
0000
0101
1000
0001
0100
,
1010
0000
0010
0100
1001
0010
0001
0000
1100
0000
1000
0000
0011
1000
0001
0100
,
1010
0000
0010
0100
1001
0010
0001
0000
1100
0000
1000
0000
0011
0100
0001
1000
,
0110
0000
0100
0010
1001
0100
0001
0000
0110
0000
0100
0000
0011
1000
0011
0100
,
0011
1000
0011
0100
0011
1000
0011
1100
0011
0100
0011
1100
0012
0000
1000
0000
,
0010
0100
1000
0000
0103
0000
1000
0100
0010
0000
1100
0011
2100
0000
0010
0000
,
0100
0001
0010
0000
3102
0000
0100
0010
1000
0000
0010
0000
2103
0000
0001
0000
,
0100
0010
0001
0000
3100
0000
0010
0100
1000
0000
0001
0000
0010
0000
0100
0000
,
1000
0100
0010
0000
1000
0000
1000
0100
0011
0000
0011
0000
0012
0000
1000
0000
,
0103
0010
0001
0000
2010
0000
0001
0100
3021
0000
1000
0000
0132
0000
0100
0000
,
1000
0013
2100
0000
0010
0000
3010
1000
0101
0000
0101
0000
0102
0000
1000
0000
,
0100
0010
2103
0000
0010
0000
0001
0100
3021
0000
0100
0000
2031
0010
0100
0010
,
0001
0010
3100
1000
0101
0010
0001
1100
0010
0100
0011
1000
0012
0000
1000
0000
,
0010
0100
1003
0000
0010
0000
1000
0100
0010
0000
1100
0011
2100
0000
0001
0000
,
0001
0010
3100
0000
0012
0000
0100
1000
0100
0000
0103
0000
2010
0000
0001
0000
,
0100
0010
0001
0000
3010
0000
0001
0010
1000
0000
0001
0000
1000
0000
0110
0000
,
2010
0001
0100
0000
3011
0000
0001
1010
0100
0000
0012
0000
1000
0000
0010
0000
,
0100
0013
2100
0000
0010
0000
0001
0010
3201
0000
0001
0000
1320
0000
1000
0000
,
1000
0100
2031
0000
0100
0000
0010
0100
3012
0000
1000
0000
2013
0000
0001
0000
,
0010
0100
3012
0000
0100
0000
0010
0100
1000
0000
0010
0000
1103
0000
0000
0000
,
0000
0000
1000
0100
1000
0100
0010
0100
0010
0001
0010
0001
1100
0000
0001
0000
,
0110
0000
1000
0100
0011
0000
0001
1010
0100
0000
0011
0000
1000
0000
0001
0010
,
1100
0010
0001
0010
0101
1000
0101
0010
0001
0000
1010
0000
0011
0000
0100
0000
,
1100
0000
0010
0100
0011
0000
0001
0110
0001
0000
1100
0000
0100
0010
0001
0000
,
1100
0010
0001
0010
1100
0001
1100
0001
0100
0010
0100
0010
1001
0000
0100
0000
,
0011
0000
0100
0001
1010
0000
0011
1000
0100
0000
1100
0000
0100
0000
1001
0000
,
0001
0000
0011
1000
0101
0000
0001
0100
1010
0000
0100
0000
0011
0000
0001
0000
,
1010
0000
1000
0001
0110
0000
0100
0011
0100
0000
1100
0000
0001
0010
0100
1000
,
0110
1000
0001
0010
1100
0010
1100
0001
0010
0001
0010
0100
1001
0000
0001
0000
,
0011
0000
0100
0001
1010
0000
1000
0011
0100
0000
1100
0000
0001
0000
1000
0100
,
0011
0100
0010
0001
1100
0001
1100
0001
0010
0000
0010
0000
1001
0000
0001
0000
,
0011
0000
0100
0001
1010
0000
0100
0011
1000
0000
1001
0000
0010
0100
0010
0000
,
1001
0100
0010
0001
1100
0010
1100
0001
0010
0100
1000
0100
0011
0000
0001
0000
,
1010
0000
0100
0001
1010
0000
0011
0100
1000
0000
1100
0000
0001
0000
0011
0000
,
0100
0000
1010
0100
0011
0000
0010
0001
1100
0000
0010
0000
0012
0000
1000
0000
,
0010
0000
0100
0010
2103
0000
0001
0100
3010
0000
1000
0000
0102
0010
0100
1000
,
0103
0010
1100
0010
0101
0010
0001
1100
0010
0001
1100
0010
1100
0001
0010
0100
,
1000
0100
0010
0001
1000
0001
0010
0100
1000
0010
0001
0010
0100
0000
0010
0010
,
0010
0000
1000
1000
1000
0000
0100
0100
0100
0000
0010
0000
1001
0000
1000
0000
,
0001
0001
1000
1000
0001
0001
1000
1000
,
0001
0001
1000
1000
0001
0001
0110
0100
,
0010
0010
0100
0100
0010
0010
0100
0100
,
0010
0010
0100
0100
0010
0010
1010
1000
,
0010
0010
1000
1000
0010
0010
0101
0100
,
0001
0001
0100
0100
0001
0001
1100
1000
,
0100
0100
0011
0010
0001
0001
0110
0100
,
0010
0010
1001
1000
0001
0001
1100
1000
,
0011
0001
1010
1000
0101
0001
1010
1000
,
0011
0001
0110
0100
0011
0001
1100
0011
,
1001
0110
0101
1010
1001
0110
0011
1010
,
0110
0000
1001
0000
0011
0000
1010
0000
0110
0000
1001
0000
0011
1100
0011
1100
,
0011
1100
0011
1100
0011
1100
0011
1100
0011
1100
0011
1100
0011
1100
0011
1100
,
0011
1100
0011
1100
0011
1100
0011
1100
0011
1100
0011
1100
0022
0000
0000
0000
,
0000
0000
0000
0000
,
0000
0000
0000
2233
,
0000
0000
0000
0000
,
0000
3300
0000
0000
,
0000
0000
0000
0000
;

//---------------dance-single - ----------------
#NOTES:
     dance-single:
     :
     Medium:
     1:
     0.000,0.000,0.000,0.000,0.000,0.000,0.000,0.000,0.000,0.000:
0000
0000
0000
0000
;
